[瑜伽美女]GGotBBang TV 2022-3-19 收藏

[视频名称] : [세로영상]폼롤러로 노폐물 빼내는 스트레칭 Home Yoga and Pilates _ 홈트 요가 필라테스 다양한 자세(1년 전 꽃빵).webm
[出境模特] : 요가 홈트 필라테스 , Yoga Home Training Pilates
[视频尺寸] : 1080x1920
[视频大小] : 1webm/66.6M
[视频时长] : 00:08:09
[视频编码] :
Stream #0:0(eng): Video: vp9 (Profile 0), yuv420p(tv, bt709), 1080x1920, SAR 1:1 DAR 9:16, 24 fps, 24 tbr, 1k tbn, 1k tbc (default)
Stream #0:1(eng): Audio: opus, 48000 Hz, stereo, fltp (default)
[下载方式] : 百度网盘
[下载地址] : 点此获取下载地址 (售价:10积分)
下载包内为原版高清视频,绝不含第三方水印!
[在线观看] : 第1段
[视频预览] : [瑜伽美女]GGotBBang TV 2022-3-19

有用 (1595)

评论加载中...