[瑜伽美女]Jessie Jiang 2022-2-18 收藏

[视频名称] : Pilates with Tight Dress 裹身裙瑜伽训练 _ 랩 드레스 タイトなドレス _ 요가 스트레칭 홈트 Hip-up Yoga at home _ 4K.webm
[出境模特] : Home training
[视频尺寸] : 1920x1080
[视频大小] : 1webm/152.0M
[视频时长] : 00:09:11
[视频编码] :
Stream #0:0(eng): Video: vp9 (Profile 0), yuv420p(tv, bt709), 1920x1080, SAR 1:1 DAR 16:9, 29.90 fps, 29.90 tbr, 1k tbn, 1k tbc (default)
Stream #0:1(eng): Audio: opus, 48000 Hz, stereo, fltp (default)
[下载方式] : 百度网盘
[下载地址] : 点此获取下载地址 (售价:10积分)
下载包内为原版高清视频,绝不含第三方水印!
[在线观看] : 第1段
[视频预览] : [瑜伽美女]Jessie Jiang 2022-2-18

有用 (173)

评论加载中...