[瑜伽美女]GGotBBang TV 2021-12-26 收藏

[视频名称] : (4K 고화질) 몸에 좋은 요가 8편 _ (4K HD) Home Yoga and Pilates Part8. _ 홈트 요가 필라테스 다양한 자세.webm
[出境模特] : 요가 홈트 필라테스 , Yoga Home Training Pilates
[视频尺寸] : 3840x2160
[视频大小] : 1webm/544.5M
[视频时长] : 00:08:06
[视频编码] :
Stream #0:0(eng): Video: vp9 (Profile 0), yuv420p(tv, bt709), 3840x2160, SAR 1:1 DAR 16:9, 29.97 fps, 29.97 tbr, 1k tbn, 1k tbc (default)
Stream #0:1(eng): Audio: opus, 48000 Hz, stereo, fltp (default)
[下载方式] : 百度网盘
[下载地址] : 点此获取下载地址 (售价:10积分)
下载包内为原版高清视频,绝不含第三方水印!
[在线观看] : 第1段
[视频预览] : [瑜伽美女]GGotBBang TV 2021-12-26

有用 (3835)

评论加载中...