[瑜伽美女]Jessie Jiang 2021-9-24 收藏

[视频名称] : Wearing a short Kimono to do Yoga at home요가 스트레칭 홈트 Hip-up exercise at home _ 4K.webm
[视频尺寸] : 3840x2160
[视频大小] : 1webm/764.9M
[视频时长] : 00:06:31
[视频编码] :
Stream #0:0(eng): Video: vp9 (Profile 0), yuv420p(tv, bt709), 3840x2160, SAR 1:1 DAR 16:9, 30 fps, 30 tbr, 1k tbn, 1k tbc (default)
Stream #0:1(eng): Audio: opus, 48000 Hz, stereo, fltp (default)
[下载方式] : 百度网盘
[下载地址] : 点此获取下载地址 (售价:10积分)
下载包内为原版高清视频,绝不含第三方水印!
[在线观看] : 第1段
[视频预览] : [瑜伽美女]Jessie Jiang 2021-9-24

有用 (1984)

评论加载中...