萝莉丝控-喵写真 PR15 009 欲做你的爱奴 收藏

[套图名称] : 萝莉丝控-喵写真 PR15 009 欲做你的爱奴
[套图尺寸] : 6461x4308
[套图大小] : 104P+1V/645.8M
[下载方式] : 百度网盘
[下载地址] : 点此获取下载地址 (VIP会员免积分下载)
下载包内为原版高清套图和视频,绝不含第三方水印!
[在线观看] : 第1段
[套图预览] : 萝莉丝控-喵写真 PR15 009 欲做你的爱奴 第1张
[视频名称] : PR15 009.mp4
[视频尺寸] : 1920x1080
[视频大小] : 1mp4/205.6M
[视频时长] : 00:04:36
[视频编码] :
Stream #0:1(und): Video: h264 (High) (avc1 / 0x31637661), yuv420p(tv, bt709, progressive), 1920x1080 [SAR 1:1 DAR 16:9], 5979 kb/s, 29.97 fps, 29.97 tbr, 30k tbn, 60k tbc (default)
Stream #0:0(zho): Audio: aac (LC) (mp4a / 0x6134706D), 48000 Hz, stereo, fltp, 249 kb/s (default)
[视频预览] : 萝莉丝控-喵写真 PR15 009 欲做你的爱奴 第1张

有用 (0)

评论加载中...