[Bimilstory]Taeri – Vol.02 Debut work Black bunny in body-stocking 收藏

[套图名称] : [Bimilstory]Taeri – Vol.02 Debut work Black bunny in body-stocking
[套图尺寸] : 3307x2481
[套图大小] : 115P+2V/1.67G
[下载方式] : 百度网盘
[下载地址] : 点此获取下载地址 (VIP会员免费下载)
下载包内为原版高清套图和视频,绝不含第三方水印!
[在线观看] : 第1段 第2段
[套图预览] : [Bimilstory]Taeri – Vol.02 Debut work Black bunny in body-stocking 第1张
[视频名称] : V (1).mp4, V (2).mp4
[视频尺寸] : 1080x1920
[视频大小] : 2mp4/1.27G
[视频时长] : 00:16:07
[视频编码] :
Stream #0:0(und): Video: h264 (High) (avc1 / 0x31637661), yuv420p(tv, bt709), 1080x1920, 5586 kb/s, 59.94 fps, 59.94 tbr, 60k tbn, 120k tbc (default)
Stream #0:1(und): Audio: aac (LC) (mp4a / 0x6134706D), 48000 Hz, stereo, fltp, 189 kb/s (default)
Stream #0:0(und): Video: h264 (High) (avc1 / 0x31637661), yuv420p(tv, bt709), 3840x2160, 19764 kb/s, 23.97 fps, 23.98 tbr, 24k tbn, 48k tbc (default)
Stream #0:1(und): Audio: aac (LC) (mp4a / 0x6134706D), 48000 Hz, stereo, fltp, 189 kb/s (default)
[视频预览] : [Bimilstory]Taeri – Vol.02 Debut work Black bunny in body-stocking V (1).mp4

有用 (0)