物恋传媒 NO.1525 兮兮-美好的期待 收藏

[套图名称] : 物恋传媒 NO.1525 兮兮-美好的期待
[套图尺寸] : 8192x5464
[套图大小] : 151P+1V/4.74G
[下载方式] : 百度网盘
[下载地址] : 点此获取下载地址 (VIP会员免费下载)
下载包内为原版高清套图和视频,绝不含第三方水印!
[在线观看] : 第1段
[套图预览] : 物恋传媒 NO.1525 兮兮-美好的期待 第1张
[视频名称] : V (1).mov
[视频尺寸] : 3840x1920
[视频大小] : 1mov/2.28G
[视频时长] : 00:15:22
[视频编码] :
Stream #0:1(und): Video: h264 (High) (avc1 / 0x31637661), yuv420p(tv, bt709), 3840x1920 [SAR 1:1 DAR 2:1], 21168 kb/s, 25 fps, 25 tbr, 25k tbn, 50k tbc (default)
Stream #0:0(zho): Audio: aac (LC) (mp4a / 0x6134706D), 48000 Hz, stereo, fltp, 104 kb/s (default)
[视频预览] : 物恋传媒 NO.1525 兮兮-美好的期待 第1张

有用 (0)