4K 2022廣百之夜内衣模特秀#10 란제리쇼 LOOKBOOK underwear model 收藏

[视频名称] : 4K 2022廣百之夜内衣模特秀#10 란제리쇼 LOOKBOOK underwear model.webm
[视频尺寸] : 2160x3840
[视频大小] : 1webm/253.1M
[视频时长] : 00:01:47
[视频编码] :
Stream #0:0(eng): Video: vp9 (Profile 0), yuv420p(tv, bt709), 2160x3840, SAR 1:1 DAR 9:16, 59.94 fps, 59.94 tbr, 1k tbn, 1k tbc (default)
Stream #0:1(eng): Audio: opus, 48000 Hz, stereo, fltp (default)
[下载方式] : 百度网盘
[下载地址] : 点此获取下载地址 (售价:10积分)
下载包内为原版高清视频,绝不含第三方水印!
[在线观看] : 第1段
[视频预览] : 4K 2022廣百之夜内衣模特秀#10 란제리쇼  LOOKBOOK  underwear  model

有用 (444)

评论加载中...