4K 모델 여시연 Model YEO SIYEON '2021 KIC-CUP 투어링카레이스' @ 직캠 by IBIZA 收藏

[视频名称] : 4K 모델 여시연 Model YEO SIYEON '2021 KIC-CUP 투어링카레이스' @ 직캠 by IBIZA.webm
[视频尺寸] : 3840x2160
[视频大小] : 1webm/211.7M
[视频时长] : 00:01:19
[视频编码] :
Stream #0:0(eng): Video: vp9 (Profile 0), yuv420p(tv, bt709), 3840x2160, SAR 1:1 DAR 16:9, 59.94 fps, 59.94 tbr, 1k tbn, 1k tbc (default)
Stream #0:1(eng): Audio: opus, 48000 Hz, stereo, fltp (default)
[下载方式] : 百度网盘
[下载地址] : 点此获取下载地址 (售价:10积分)
下载包内为原版高清视频,绝不含第三方水印!
[在线观看] : 第1段
[视频预览] : 4K 모델 여시연 Model YEO SIYEON '2021 KIC-CUP 투어링카레이스'  @ 직캠 by IBIZA

有用 (745)

评论加载中...