[韩国车模]4kOTAKU 김나라 Kim Nara 2021-9-14 收藏

[视频名称] : 4K 김나라 Kim Nara #4 Horizontal 직캠 Fancam 2021 부산국제보트쇼 by 화질덕후 4kOTAKU.webm
[出境模特] : 김나라 Kim Nara
[视频尺寸] : 3840x2160
[视频大小] : 1webm/255.9M
[视频时长] : 00:02:34
[视频编码] :
Stream #0:0(eng): Video: vp9 (Profile 0), yuv420p(tv, bt709), 3840x2160, SAR 1:1 DAR 16:9, 29.97 fps, 29.97 tbr, 1k tbn, 1k tbc (default)
Stream #0:1(eng): Audio: opus, 48000 Hz, stereo, fltp (default)
[下载方式] : 百度网盘
[下载地址] : 点此获取下载地址 (售价:10积分)
下载包内为原版高清视频,绝不含第三方水印!
[在线观看] : 第1段
[视频预览] : [韩国车模]4kOTAKU 김나라 Kim Nara 2021-9-14

有用 (246)

评论加载中...