[韩国车模]4kOTAKU 김지율 Kim Jiyul 2021-8-17 收藏

[视频名称] : 4K 김지율 Kim Jiyul #2 Horizontal 직캠 Fancam 2018 모터사이클쇼 by 화질덕후 4kOTAKU.webm
[出境模特] : 4kOTAKU김지율 Kim Jiyul
[视频尺寸] : 3840x2160
[视频大小] : 1webm/201.6M
[视频时长] : 00:03:10
[视频编码] :
Stream #0:0(eng): Video: vp9 (Profile 0), yuv420p(tv, bt709), 3840x2160, SAR 1:1 DAR 16:9, 29.97 fps, 29.97 tbr, 1k tbn, 1k tbc (default)
Stream #0:1(eng): Audio: opus, 48000 Hz, stereo, fltp (default)
[下载方式] : 百度网盘
[下载地址] : 点此获取下载地址 (售价:10积分)
下载包内为原版高清视频,绝不含第三方水印!
[在线观看] : 第1段
[视频预览] : [韩国车模]4kOTAKU 김지율 Kim Jiyul 2021-8-17

有用 (293)

评论加载中...