大生模拍 NO.233 念念 小白裙 收藏

[套图名称] : 大生模拍 NO.233 念念 小白裙
[套图尺寸] : 6720x4480
[套图大小] : 58P+1V/826.3M
[下载方式] : 百度网盘
[下载地址] : 点此获取下载地址 (VIP会员免积分下载)
下载包内为原版高清套图和视频,绝不含第三方水印!
[在线观看] : 第1段
[套图预览] : 大生模拍 NO.233 念念 小白裙 第1张
[视频名称] : V.mp4
[视频尺寸] : 3840x2160
[视频大小] : 1mp4/341.1M
[视频时长] : 00:04:36
[视频编码] :
Stream #0:0(eng): Video: h264 (Main) (avc1 / 0x31637661), yuv420p(tv, bt709), 3840x2160, 10010 kb/s, 29.97 fps, 29.97 tbr, 30k tbn, 59.94 tbc (default)
Stream #0:1(eng): Audio: aac (LC) (mp4a / 0x6134706D), 48000 Hz, stereo, fltp, 317 kb/s (default)
[视频预览] : 大生模拍 NO.233 念念 小白裙 第1张

有用 (1)

评论加载中...