大生模拍 NO.220 娟儿 韩系小可爱 收藏

[套图名称] : 大生模拍 NO.220 娟儿 韩系小可爱
[套图尺寸] : 6016x4016
[套图大小] : 40P+1V/576.9M
[下载方式] : 百度网盘
[下载地址] : 点此获取下载地址 (VIP会员免积分下载)
下载包内为原版高清套图和视频,绝不含第三方水印!
[在线观看] : 第1段
[套图预览] : 大生模拍 NO.220 娟儿 韩系小可爱 第1张
[视频名称] : 序列 01.mp4
[视频尺寸] : 1920x1080
[视频大小] : 1mp4/350.1M
[视频时长] : 00:04:43
[视频编码] :
Stream #0:0(eng): Video: h264 (Main) (avc1 / 0x31637661), yuv420p, 1920x1080 [SAR 1:1 DAR 16:9], 10050 kb/s, 59.94 fps, 59.94 tbr, 60k tbn, 119.88 tbc (default)
Stream #0:1(eng): Audio: aac (LC) (mp4a / 0x6134706D), 48000 Hz, stereo, fltp, 317 kb/s (default)
[视频预览] : 大生模拍 NO.220 娟儿 韩系小可爱 第1张

有用 (0)

评论加载中...