[只糖棉袜]NO.161 文文 我等你一个冬天 收藏

[套图名称] : [只糖棉袜]NO.161 文文 我等你一个冬天
[套图尺寸] : 6016x4016
[套图大小] : 209P+1V/965.7M
[下载方式] : 百度网盘
[下载地址] : 点此获取下载地址 (VIP会员免积分下载)
下载包内为原版高清套图和视频,绝不含第三方水印!
[在线观看] : 第1段
[套图预览] : [只糖棉袜]NO.161 文文 我等你一个冬天 第1张
[视频名称] : V (1).mp4
[视频尺寸] : 1920x1080
[视频大小] : 1mp4/231.0M
[视频时长] : 00:03:12
[视频编码] :
Stream #0:0(und): Video: h264 (High) (avc1 / 0x31637661), yuv420p(tv, bt709/unknown/bt709), 1920x1080 [SAR 1:1 DAR 16:9], 10067 kb/s, 30 fps, 30 tbr, 15360 tbn, 60 tbc (default)
Stream #0:1(und): Audio: aac (LC) (mp4a / 0x6134706D), 44100 Hz, stereo, fltp, 2 kb/s (default)
[视频预览] : [只糖棉袜]NO.161 文文 我等你一个冬天 第1张

有用 (0)

评论加载中...