[YALAYI雅拉伊]视频 2020.09.18 V144《涟漪》和风 收藏

[视频名称] : 涟漪.mp4
[出境模特] : 和风
[视频尺寸] : 1920x1080
[视频大小] : 1mp4/59.5M
[视频时长] : 00:00:48
[视频编码] :
Stream #0:0(eng): Video: h264 (Main) (avc1 / 0x31637661), yuv420p(tv, bt709), 1920x1080, 9944 kb/s, 50 fps, 50 tbr, 50k tbn, 100 tbc (default)
Stream #0:1(eng): Audio: aac (LC) (mp4a / 0x6134706D), 48000 Hz, stereo, fltp, 317 kb/s (default)
[下载方式] : 百度网盘
[下载地址] : 点此获取下载地址 (售价:6积分)
下载包内为原版高清视频,绝不含第三方水印!
[在线观看] : 第1段
[视频预览] : [YALAYI雅拉伊]视频 2020.09.18 V144《涟漪》和风 封面

有用 (0)

评论加载中...