白银 – 纯白花嫁 收藏

[套图名称] : 白银 – 纯白花嫁
[套图尺寸] : 4032x3024
[套图大小] : 161P+6V/1.03G
[下载方式] : 百度网盘
[下载地址] : 点此获取下载地址 (VIP会员免积分下载)
下载包内为原版高清套图和视频,绝不含第三方水印!
[在线观看] : [1] [2] [3] [4] [5] [6]
[套图预览] : 白银 – 纯白花嫁 第1张
[视频名称] : 纯白花嫁1.mp4, 纯白花嫁2.mp4, 纯白花嫁3.mp4, 纯白花嫁4.mp4, 纯白花嫁5.mp4, 纯白花嫁6.mp4
[视频尺寸] : 1080x1920
[视频大小] : 6mp4/376.1M
[视频时长] : 00:05:37
[视频编码] :
Stream #0:0(und): Video: h264 (High) (avc1 / 0x31637661), yuv420p(tv, smpte170m/bt709/bt709, progressive), 1080x1920, 12462 kb/s, 29.78 fps, 600 tbr, 600 tbn, 1200 tbc (default)
Stream #0:1(und): Audio: aac (LC) (mp4a / 0x6134706D), 44100 Hz, mono, fltp, 156 kb/s (default)
Stream #0:0(und): Video: h264 (High) (avc1 / 0x31637661), yuv420p(tv, smpte170m/bt709/bt709, progressive), 1080x1920, 12540 kb/s, 29.81 fps, 600 tbr, 600 tbn, 1200 tbc (default)
Stream #0:1(und): Audio: aac (LC) (mp4a / 0x6134706D), 44100 Hz, mono, fltp, 156 kb/s (default)
Stream #0:0(und): Video: h264 (High) (avc1 / 0x31637661), yuv420p(tv, smpte170m/bt709/bt709, progressive), 1080x1920, 12520 kb/s, 29.86 fps, 600 tbr, 600 tbn, 1200 tbc (default)
Stream #0:1(und): Audio: aac (LC) (mp4a / 0x6134706D), 44100 Hz, mono, fltp, 156 kb/s (default)
Stream #0:0(und): Video: h264 (High) (avc1 / 0x31637661), yuv420p(tv, smpte170m/bt709/bt709, progressive), 1080x1920, 14119 kb/s, 29.85 fps, 600 tbr, 600 tbn, 1200 tbc (default)
Stream #0:1(und): Audio: aac (LC) (mp4a / 0x6134706D), 44100 Hz, mono, fltp, 156 kb/s (default)
Stream #0:0(und): Video: h264 (High) (avc1 / 0x31637661), yuv420p(tv, smpte170m/bt709/bt709, progressive), 1920x1080, 12045 kb/s, 29 fps, 29 tbr, 600 tbn, 1200 tbc (default)
Stream #0:1(und): Audio: aac (LC) (mp4a / 0x6134706D), 44100 Hz, mono, fltp, 92 kb/s (default)
Stream #0:0(und): Video: h264 (High) (avc1 / 0x31637661), yuv420p(tv, smpte170m/bt709/bt709, progressive), 1920x1080, 12060 kb/s, 30 fps, 30 tbr, 600 tbn, 1200 tbc (default)
Stream #0:1(und): Audio: aac (LC) (mp4a / 0x6134706D), 44100 Hz, mono, fltp, 63 kb/s (default)
[视频预览] : 白银 – 纯白花嫁 纯白花嫁1.mp4

有用 (0)

评论加载中...