[YouMei尤美]视频 2018.08.30 NO.054 易阳の陷阱 易阳 收藏

[视频名称] : NO.054 易阳の陷阱 易阳.mp4
[出境模特] : 易阳
[视频尺寸] : 1920x1080
[视频大小] : 1mp4/135.5M
[视频时长] : 00:03:37
[视频编码] :
Stream #0:0(und): Video: h264 (Main) (avc1 / 0x31637661), yuv420p(tv, bt709/unknown/bt709), 1920x1080 [SAR 1:1 DAR 16:9], 5090 kb/s, 50 fps, 50 tbr, 12800 tbn, 100 tbc (default)
Stream #0:1(und): Audio: aac (LC) (mp4a / 0x6134706D), 44100 Hz, stereo, fltp, 129 kb/s (default)
[下载方式] : 百度网盘
[下载地址] : 点此获取下载地址 (售价:10积分)
下载包内为原版高清视频,绝不含第三方水印!
[在线观看] : 第1段
[视频预览] : [YouMei尤美]视频 2018.08.30 NO.054 易阳の陷阱 易阳 第1张

有用 (12)

评论加载中...